#TITLE:No Doubt Get Loud;
#SUBTITLE:~AMR & Ganos~;
#ARTIST:Asletics;
#TITLETRANSLIT:;
#SUBTITLETRANSLIT:;
#ARTISTTRANSLIT:;
#CREDIT:;
#BANNER:No Doubt Get Loud.png;
#BACKGROUND:No Doubt Get Loud-bg.png;
#LYRICSPATH:;
#CDTITLE:Asstro.PNG;
#MUSIC:No Doubt Get Loud.ogg;
#OFFSET:-2.100;
#SAMPLESTART:56.190;
#SAMPLELENGTH:12.000;
#SELECTABLE:YES;
#BPMS:0.000=100.000;
#STOPS:;
#BGCHANGES:;
// cache tags:
#FIRSTBEAT:0.000;
#LASTBEAT:160.000;
#SONGFILENAME:Songs/Chilean Keyboard Megapack 3/(Asstro) No Doubt Get Loud/No Doubt Get Loud.sm;
#HASMUSIC:1;
#HASBANNER:1;
#MUSICLENGTH:99.100;
// end cache tags

//---------------dance-single - ----------------
#NOTES:
     dance-single:
     :
     Challenge:
     10:
     0.738,0.727,0.424,0.232,1.000,447.000,42.000,23.000,0.000,2.000:
1000
0000
0010
0100
0000
0001
0000
0010
0000
0100
0000
1000
0000
0001
0000
0000
,
0100
0000
0010
1000
0000
0100
0000
0010
0001
1000
0100
0010
0001
1000
0100
0010
,
0100
0000
0000
0000
0010
0000
0001
0000
0000
0000
0100
0000
0000
0000
0010
0000
0000
0000
1000
0000
0000
0000
0010
0000
0200
0000
0000
0000
0000
0000
0000
0300
,
0001
0000
1000
0100
1000
0000
0001
0100
0001
0000
1000
0100
0010
0001
0100
0010
,
1100
0000
0010
0100
0000
0001
1000
0000
0100
0010
0000
0100
0000
0010
0001
0000
,
0110
0000
1000
0100
0000
0010
0001
0000
1000
0010
0000
0001
0100
1000
0100
0001
,
0110
0000
1000
0010
1000
0100
0020
0000
1031
0011
0000
0101
0000
1010
1100
1001
,
0101
0010
0000
0101
0000
0010
0101
0000
1000
0100
0000
0010
0001
0100
0010
0100
,
0002
0000
1003
1000
1000
1000
1000
1000
1000
1000
1000
1000
1000
1000
1000
1000
,
0001
0001
0001
0001
0001
0001
0001
0001
0001
0001
0001
0001
0001
0001
0001
0001
,
0010
0010
0010
0010
0010
0010
0010
0010
0010
0010
0010
0010
0010
0010
0010
0010
,
0100
0100
0100
0100
0100
0100
0100
0100
0100
0100
0100
0100
0100
0100
0100
0100
,
1001
0100
0010
0001
0100
0010
0100
0001
0100
1000
0001
0010
1000
0000
0000
0000
,
1010
0000
0001
0000
0010
0100
0001
0010
0100
0001
0100
0010
0100
0000
0000
0000
,
0010
0100
1000
0001
1000
0100
0010
0001
0010
0100
1000
0010
0100
0000
0000
0000
,
0011
0000
0001
0100
0010
1000
0000
1000
0000
1000
0000
1000
0100
1000
0100
1000
,
1001
0000
0010
0100
0001
0000
1000
0000
2002
0000
0000
0000
3003
0000
0100
0000
,
0010
0000
1000
0000
0001
0000
0010
0100
1000
0010
0100
0010
0000
2000
0000
3000
,
0000
0000
0001
0010
0100
0010
0001
0000
2002
0000
3003
0000
0000
0000
0010
0000
,
0100
0000
0001
0100
0010
0000
1000
0100
0010
0001
1000
0100
0010
0001
1000
0100
,
0011
0000
1000
0010
0100
0000
0001
0000
0202
0000
0303
0000
0000
0000
1000
0000
,
0100
0000
0010
0000
0001
0000
0100
0010
0100
0001
1000
0100
0000
0010
0000
0000
,
0000
0000
0001
0010
0001
0100
1001
0010
2200
0000
3300
0000
0000
0000
0010
0000
,
0100
0000
0001
0000
1000
0000
0100
0010
1001
0010
0100
0001
1000
0001
0100
0010
,
1100
0010
0100
0001
1000
0010
0100
1000
0001
1000
0100
0010
0001
0001
0001
0000
,
1000
0100
0001
0010
0100
1000
0100
0001
0100
1000
0100
0010
0001
0001
0001
0001
,
1001
0010
0100
0001
1000
0010
0100
1000
0100
0100
0100
0100
0100
0000
0000
0000
,
0001
0000
0100
0010
0001
0100
0010
1000
0010
0001
0010
1000
0001
0100
0010
1000
,
0101
0000
0000
0000
1000
1000
0010
0100
0010
1000
0000
0000
0001
0010
0100
0000
,
0010
0000
0000
0000
0001
0100
0000
0010
0000
1000
0000
0100
0010
0001
1000
0100
,
0011
0000
1000
0000
0000
1000
0000
0000
0001
0001
0000
1000
0000
0100
0010
0001
,
1001
0000
0010
0100
0010
0000
1000
0001
1000
0000
0001
0010
0200
0000
0300
0000
,
1001
0000
0010
0100
0001
0000
1000
0000
0220
0000
0000
0000
0330
0000
0001
0000
,
0010
0000
0100
0000
1000
0000
0100
0010
0001
0100
0010
1000
0000
2002
0000
0000
,
3103
0000
0100
0010
1000
0010
0001
0100
2002
0000
0000
0000
3003
0000
0100
0000
,
0010
0000
0100
0000
0001
0000
1000
0100
0010
0010
0100
1000
0100
0100
0010
0001
,
0110
0000
0001
0100
0000
0010
0000
1000
0000
0100
0000
0010
0000
0001
0000
0000
,
1001
0000
0100
0010
0000
1000
0000
0010
0000
0100
0000
0001
0000
0010
0100
0100
,
1001
0000
0100
0010
0001
0100
0010
0000
2020
0000
0000
0000
3030
0000
0010
0000
,
1001
0100
1001
0100
0011
0110
1100
2002
,
3003
0000
0000
0000
;

//---------------dance-single - ----------------
#NOTES:
     dance-single:
     :
     Edit:
     12:
     0.924,0.826,1.000,0.192,0.999,467.000,149.000,19.000,0.000,6.000:
1001
0000
0100
0011
0000
0001
0000
0100
0000
0010
0000
1000
0000
0001
0000
0000
,
0110
0000
1000
0101
0000
0001
0000
0010
0001
1000
0001
0000
1000
0001
1100
0001
,
0110
0000
0000
0000
0001
0000
1100
0000
0000
0000
0010
0000
0000
0000
1000
0000
0000
0000
0100
0000
0000
0000
0010
0000
0000
0010
0100
1000
0000
0100
0000
0010
,
0000
0000
0001
1000
0100
0000
0010
0001
0010
0000
0100
0100
0100
0100
0010
0001
,
1100
0000
0001
0110
1000
0100
0010
0000
0001
1000
0000
0100
0000
1000
0001
0000
,
0011
0000
0100
1010
0100
0010
0001
0000
1000
0001
0000
1000
0100
0010
0101
1000
,
0011
0000
0010
0101
0010
1000
0001
0000
1000
0001
0000
0100
0000
0010
1001
1000
,
0011
0001
1000
0011
0000
0100
0100
0000
0010
1001
0000
0010
1001
1000
0110
0010
,
1001
0000
0010
1100
0010
0001
0010
0000
1000
0001
1000
0010
0100
0001
1000
0100
,
1001
0000
0100
0011
0100
0000
0001
0000
0001
1000
0000
0001
1000
0010
1100
0010
,
1001
0000
0010
1001
0100
0010
0001
0000
0010
1000
0000
0001
0010
0010
0101
0000
,
1001
0000
0010
1001
0100
0001
0001
0000
1000
1010
0001
0000
1010
1000
0011
0100
,
1001
0010
0100
1010
0100
1000
0001
0100
0010
1000
0001
0001
0001
0000
0100
0000
,
1001
0000
0000
0000
1000
0000
0011
0000
0100
0000
0010
0000
1000
0000
0100
0000
0010
0000
0001
0000
0100
0000
0100
0000
0100
0010
0001
0000
1010
0000
0100
0000
,
1001
0001
0100
0011
1000
0100
0010
0001
0010
0100
0010
0010
0010
0000
0110
0000
,
1001
0000
0100
1001
0100
0010
0000
0010
0000
0011
1000
0100
0011
0100
1010
0001
,
1100
0000
0010
1001
0010
0100
1000
0000
0202
0000
0303
0000
0000
0000
1010
0000
,
0101
0000
0011
0000
1100
0000
0010
0001
1000
0100
0010
0001
0000
0001
1010
0100
,
1001
0000
0100
1001
0100
0010
1000
0000
0220
0000
0330
0000
0000
0000
0011
0000
,
1100
0000
1010
0000
0101
0000
1000
0001
0010
0100
0001
0010
0100
1000
0010
0100
,
0011
0000
1000
0011
0100
0010
0001
0000
2020
0000
3030
0000
0000
0000
1010
0000
,
0101
0000
0011
0000
1100
0000
0001
0100
0010
1000
0100
0010
0000
0001
1010
0100
,
1001
0000
0100
1010
0001
0010
0100
0000
2020
0000
3030
0000
0000
0000
1001
0000
,
0110
0000
1100
0000
0011
0000
1000
0100
0010
0010
0100
0001
0100
0100
0010
0010
,
1001
0010
0100
0011
1000
0100
0010
0001
0100
0100
0100
0000
1010
0000
0101
0000
,
1001
0100
0010
0101
1000
0010
0100
0001
0010
0010
0110
0000
1001
1001
0110
0000
,
0110
0001
0100
1001
0010
1000
0100
0010
0001
0001
0001
0001
0001
0000
0110
0000
,
1001
0000
0001
0110
1000
0100
0010
0001
1000
0011
1000
0000
0011
0100
1010
0100
,
1001
0000
1000
0110
0000
0001
1000
0000
1000
0100
0011
1000
0011
0011
1000
0011
,
1100
0000
0000
0000
0010
0000
0101
0000
0000
0000
1000
0000
0001
0000
0000
0000
0100
0000
0010
0000
0000
0000
1000
0000
0100
0010
0001
0000
1100
0000
0010
0000
,
1001
0000
0100
1010
0000
0100
0010
0000
0001
0001
0000
0001
0000
1000
0101
0010
,
1100
0000
1000
0110
0001
0000
0010
1000
0001
1100
0010
0010
1100
0000
0110
0000
,
1001
0000
0010
0101
0010
1000
0100
0000
0022
0000
0033
0000
0000
0000
0110
0000
,
1001
0000
0011
0000
1100
0000
0010
0100
0001
0010
0100
1000
0000
1000
0011
0100
,
1001
0000
0100
0011
0100
1000
0100
0000
2002
0000
3003
0000
0000
0000
1001
0000
,
0110
0000
1100
0000
0011
0000
1000
0100
0010
1001
0100
0010
1100
0010
0101
0010
,
1001
0000
0100
1010
0100
0010
0001
0000
2002
0000
3003
0000
0000
0000
0011
0000
,
1100
0000
0101
0000
1010
0000
0010
0100
0001
0010
0100
1000
0100
0010
0101
0010
,
1001
0000
0100
0011
1000
0010
0100
0000
0220
0000
0330
0000
0000
0000
0110
0000
,
1110
0000
0110
1000
0111
0000
0110
0001
1110
0000
1110
0000
1110
0000
2220
3330
;
